Friday, June 11, 2010

Ensemble Bustan Abraham - Bustan Abraham (1992)


Ensemble Bustan Abraham - Bustan Abraham (1992)
EAC (Img.Wv+LOG+Cue) + MP3 @ 224 kbps CBR | 44100Hz | Joint Stereo | Total Time: 60:32 min | 349 Mb + 120 Mb
Genre: World Fusion, Middle-Eastern Folk | Label: Nada Records | Catalog#: NADA-7

Bustan (Hebrew and Arabic meaning, "garden of fruits and essences," in this case the garden of Abraham, father of Isaac and Ishmail) was founded in 1991 by Avshalom Farjun. It comprises seven distinguished Israeli musicians, both Jews and Arabs, who have combined their musical experience as composers, soloists and heads of musical ensembles to create original music on a very high international level.
The musical backgrounds of Bustan Abraham's members are very rich and represent an astonishing variety of musical cultures including classical Arabic music, classical European music, jazz, Turkish, Persian and Indian music, flamenco and American folk music.



Bustan Abraham's members are:

Taiseer Elias-oud, violin
Amir Milstein-flute
Avshalom Farjun-qanoun
Emmanuel Mann -bass
Zohar Fresco-percussion
Miguel Herstein-classical guitar and banjo
Nassim Dakwar-violin
Yehuda Siliki-baglama

Track Listing
1. Canaan
2. Journey
3. Suite for Deyzi
4. Metamorphosis
5. Bustan
6. In the name of the children
7. Tini mini hanem




RAR PASS:
marm@Duk3

LOSSLESS (Img.Wv+LOG+Cue)
Part 1
Part 2


Exact Audio Copy V0.99 prebeta 5 from 4. May 2009

EAC extraction logfile from 9. June 2010, 23:19

Bustan Abraham / Bustan Abraham

Used drive : PIONEER DVD-RW DVR-110D Adapter: 1 ID: 0

Read mode : Secure
Utilize accurate stream : Yes
Defeat audio cache : Yes
Make use of C2 pointers : No

Read offset correction : 48
Overread into Lead-In and Lead-Out : No
Fill up missing offset samples with silence : Yes
Delete leading and trailing silent blocks : No
Null samples used in CRC calculations : Yes
Used interface : Native Win32 interface for Win NT & 2000

Used output format : User Defined Encoder
Selected bitrate : 128 kBit/s
Quality : High
Add ID3 tag : No
Command line compressor : C:\Program Files\Exact Audio Copy\wavpack.exe


TOC of the extracted CD

Track | Start | Length | Start sector | End sector
---------------------------------------------------------
1 | 0:00.00 | 12:09.50 | 0 | 54724
2 | 12:09.50 | 10:07.00 | 54725 | 100249
3 | 22:16.50 | 13:08.00 | 100250 | 159349
4 | 35:24.50 | 10:08.00 | 159350 | 204949
5 | 45:32.50 | 9:46.00 | 204950 | 248899
6 | 55:18.50 | 6:04.00 | 248900 | 276199
7 | 61:22.50 | 9:09.25 | 276200 | 317399


Range status and errors

Selected range

Filename D:\Bustan Abraham - Bustan Abraham\Bustan Abraham - Bustan Abraham.wav

Peak level 98.1 %
Range quality 100.0 %
Copy CRC 6D7C1B58
Copy OK

No errors occurred

End of status report

Download (Mp3 CBR @ 224 kbps)
Part 1
Part 2

3 comments:

  1. Thank you very much, my dear friend... :-)

    ReplyDelete
  2. Most of nowadays peoples are fond of digital equipment for their DJ party. Then there is a better website then other sites. To know more about music, you can visit riverside dj

    ReplyDelete
  3. Seydikemer Escort
    Ula Escort
    Muğlanın en güzel ve en sıcak escortları sizleri beklemekte hemde onlıne

    ReplyDelete